Latest post Sun, Jul 16 2017 6:19 AM by camoscato. 6 replies.
Page 1 of 1 (7 items)
Sort Posts: Previous Next
  • Thu, Jul 13 2017 5:38 AM

    newscutter exports not working in other NLE

    i use newscutter at work, and Premiere Pro at home. i export a sequence using Quicktime > same as source to get the best possible export, and lo and behold my home pc won't read the file. The PCs at work running premiere read the file just fine and dandy. can someone point me to a codec pack i can download so i can read the files at home as well? thanks.

    an example file:
    https://1drv.ms/v/s!Auu8McGAPINMgRQW559A4UTgXha0

    medie info:
    General
    Complete name                            : H:\Temp\Video Mixdown AGAIN 2.mov
    Format                                   : MPEG-4
    Commercial name                          : AVC-Intra
    Format profile                           : QuickTime
    Codec ID                                 : qt   2005.03 (qt  )
    File size                                : 2.54 GiB
    Duration                                 : 6 min 20 s
    Overall bit rate                         : 57.3 Mb/s
    Encoded date                             : UTC 2017-07-07 03:40:16
    Tagged date                              : UTC 2017-07-07 03:41:27
    Writing library                          : Apple QuickTime
     
    Video
    ID                                       : 1
    Format                                   : AVC
    Format/Info                              : Advanced Video Codec
    Commercial name                          : AVC-Intra
    Format profile                           : High 10 Intra@L4
    Format settings, CABAC                   : Yes
    Format settings, GOP                     : N=1
    Codec ID                                 : AVin
    Codec ID/Info                            : Advanced Video Coding
    Duration                                 : 6 min 20 s
    Bit rate mode                            : Constant
    Bit rate                                 : 56.1 Mb/s
    Width                                    : 1 920 pixels
    Original width                           : 1 440 pixels
    Height                                   : 1 080 pixels
    Display aspect ratio                     : 16:9
    Original display aspect ratio            : 1.000
    Frame rate mode                          : Constant
    Frame rate                               : 29.970 (29970/1000) FPS
    Original frame rate                      : 29.970 (30000/1001) FPS
    Standard                                 : Component
    Color space                              : YUV
    Chroma subsampling                       : 4:2:0
    Bit depth                                : 10 bits
    Scan type                                : MBAFF
    Bits/(Pixel*Frame)                       : 0.902
    Stream size                              : 2.47 GiB (97%)
    Language                                 : English
    Encoded date                             : UTC 2017-07-07 03:40:16
    Tagged date                              : UTC 2017-07-07 03:41:27
    Color range                              : Full
    Color primaries                          : BT.709
    Transfer characteristics                 : BT.709
    Matrix coefficients                      : BT.709
     
    Audio
    ID                                       : 2
    Format                                   : PCM
    Format settings, Endianness              : Little
    Format settings, Sign                    : Signed
    Codec ID                                 : sowt
    Duration                                 : 6 min 20 s
    Bit rate mode                            : Constant
    Bit rate                                 : 1 536 kb/s
    Channel(s)                               : 2 channels
    Channel positions                        : Front: L R
    Sampling rate                            : 48.0 kHz
    Bit depth                                : 16 bits
    Stream size                              : 69.7 MiB (3%)
    Language                                 : English
    Encoded date                             : UTC 2017-07-07 03:40:16
    Tagged date                              : UTC 2017-07-07 03:41:27
     
    Other
    ID                                       : 3
    Type                                     : Time code
    Format                                   : QuickTime TC
    Duration                                 : 6 min 20 s
    Time code of first frame                 : 01:00:00;00
    Time code, striped                       : Yes
    Language                                 : English
    Encoded date                             : UTC 2017-07-07 03:41:22
    Tagged date                              : UTC 2017-07-07 03:41:27

  • Thu, Jul 13 2017 6:18 AM In reply to

    Re: newscutter exports not working in other NLE

    It looks like you're exporting files using the AVC-Intra codec. Do you have that codec on your home machine?

    Media Composer 8.9.3 w/Symphony option, HP Envy 17t-j100 Quad Edition laptop, Windows 10 Pro, Intel Core i7 2.4GHz, 16 GB RAM, nVidia GeForce GT 740M [view my complete system specs]

    "There is hardly anything in the world that some man cannot make a little worse and sell a little cheaper, and the people who only consider the price are this man's lawful prey."  - John Ruskin (1819-1900)

     

    Carl Amoscato | Freelance Film & Video Editor | London, UK

  • Thu, Jul 13 2017 8:39 AM In reply to

    Re: newscutter exports not working in other NLE

    could not find anywhere to get the codec. i downloaded the p2 card reader drivers, but it didnt seem to not do anything. but i can tell you i can't play the files on the machine anyhow. like if i double click on it, quick time and windows media player both do nothing. so yeah.

  • Thu, Jul 13 2017 9:17 AM In reply to

    Re: newscutter exports not working in other NLE

    What about exporting from Newscutter using a different codec? If you choose custom instead of same as source you should be able to choose a codec you can also use on your home machine (h264, for example).

    Media Composer 8.9.3 w/Symphony option, HP Envy 17t-j100 Quad Edition laptop, Windows 10 Pro, Intel Core i7 2.4GHz, 16 GB RAM, nVidia GeForce GT 740M [view my complete system specs]

    "There is hardly anything in the world that some man cannot make a little worse and sell a little cheaper, and the people who only consider the price are this man's lawful prey."  - John Ruskin (1819-1900)

     

    Carl Amoscato | Freelance Film & Video Editor | London, UK

  • Thu, Jul 13 2017 10:52 PM In reply to

    Re: newscutter exports not working in other NLE

    I could, but all the other export options look.... well, not good. I compared about 12 different export versions and none of them held up to the avc-intra. I even did an h.264 at 50 Mbps, and it still had artifacts and color degradation. Is there just simply a zip file somewhere that I can download the avc-intra codec to install? 

  • Sun, Jul 16 2017 3:44 AM In reply to

    Re: newscutter exports not working in other NLE

    ok i resolved the issue. i had to install the Avid Codecs PE on my home pc, and everything works now. yay.

  • Sun, Jul 16 2017 6:19 AM In reply to

    Re: newscutter exports not working in other NLE

    Glad you figured it out, and thanks for posting the solution.

    Media Composer 8.9.3 w/Symphony option, HP Envy 17t-j100 Quad Edition laptop, Windows 10 Pro, Intel Core i7 2.4GHz, 16 GB RAM, nVidia GeForce GT 740M [view my complete system specs]

    "There is hardly anything in the world that some man cannot make a little worse and sell a little cheaper, and the people who only consider the price are this man's lawful prey."  - John Ruskin (1819-1900)

     

    Carl Amoscato | Freelance Film & Video Editor | London, UK

Page 1 of 1 (7 items)

© Copyright 2011 Avid Technology, Inc.  Terms of Use |  Privacy Policy |  Site Map |  Find a Reseller